#TITLE:Solid Gold;
#SUBTITLE:;
#ARTIST:Dusty;
#TITLETRANSLIT:;
#SUBTITLETRANSLIT:;
#ARTISTTRANSLIT:;
#CREDIT:;
#BANNER:;
#BACKGROUND:;
#LYRICSPATH:;
#CDTITLE:;
#MUSIC:Solid Gold.mp3;
#MUSICLENGTH:90.749;
#OFFSET:-0.060;
#SAMPLESTART:53.985;
#SAMPLELENGTH:12.000;
#SELECTABLE:YES;
#BPMS:0.000=159.880;
#STOPS:;
#BGCHANGES:;
#FIRSTBEAT:16.000;

#LASTBEAT:240.000;

#SONGFILENAME:Songs/ERICth The 3rd/Solid Gold/Solid Gold.sm;

#HASMUSIC:1;

#HASBANNER:0;


//---------------dance-single - MANIAC----------------
#NOTES:
     dance-single:
     MANIAC:
     hard:
     8:
     0.557,0.595,0.529,0.220,0.198,286.000,48.000,20.000,0.000,0.000:  // measure 1
0000
0000
0000
0000
,  // measure 2
0000
0000
0000
0000
,  // measure 3
0000
0000
0000
0000
,  // measure 4
0000
0000
0000
0000
,  // measure 5
0001
0100
0010
0100
0000
0010
0000
2000
,  // measure 6
0000
0000
0000
3200
0000
0000
0000
0320
,  // measure 7
0000
0000
0000
0032
0000
0000
0000
2003
,  // measure 8
0000
0000
0000
3002
0000
0000
0000
0003
,  // measure 9
1000
0010
0100
0001
0000
0100
0000
1000
,  // measure 10
0000
0000
0100
0001
,  // measure 11
0020
0000
0000
0031
0000
0000
0000
1000
,  // measure 12
0010
0100
0010
0001
0000
0100
0000
0000
,  // measure 13
0001
0000
1000
0000
0001
0000
0010
0100
0000
0000
0100
0000
0010
0001
0000
0000
,  // measure 14
1000
0000
0001
0000
1000
0000
0010
0100
0000
0000
0100
0000
0010
1000
0000
0000
,  // measure 15
1000
0100
1000
0000
0000
0000
0001
0100
0001
0000
1000
0000
0010
0001
0000
0000
,  // measure 16
1000
0100
0000
0000
0100
0010
0000
0000
0010
0001
0000
0000
0001
0100
0000
0000
,  // measure 17
0001
0000
1000
0000
0001
0000
0010
0100
0000
0000
0100
0000
0010
0001
0000
0000
,  // measure 18
1000
0000
0001
0000
1000
0000
0010
0100
0000
0000
0100
0000
0010
1000
0000
0000
,  // measure 19
1000
0100
1000
0000
0000
0000
0001
0100
0001
0000
1000
0000
0010
0000
0000
0000
,  // measure 20
1001
0000
0000
0110
0000
0000
1001
0000
0000
0000
0000
0000
0110
0000
0000
0000
,  // measure 21
0100
0001
1000
0010
,  // measure 22
0002
0000
0000
1003
0000
0000
0000
0000
,  // measure 23
0010
0001
1000
0010
0000
0000
0000
1000
,  // measure 24
1100
0000
0101
0000
1000
0100
0001
0000
,  // measure 25
0000
1010
0011
0110
,  // measure 26
2000
0000
0000
3001
0000
0000
0000
0000
,  // measure 27
0010
0001
0010
1000
0000
1000
0000
0011
,  // measure 28
0000
1020
0000
0000
0100
0100
0100
0130
,  // measure 29
0100
0000
0001
0000
1000
0010
0100
0000
,  // measure 30
0001
0000
0100
0000
0010
1000
0100
0000
,  // measure 31
0001
0000
0100
0000
1000
0001
0010
0000
,  // measure 32
0100
0000
0010
0000
1000
0001
0100
0000
,  // measure 33
1000
0000
0100
0000
0010
0001
1000
0000
,  // measure 34
0100
0000
0001
0000
1000
0001
1000
0000
,  // measure 35
0100
0000
0010
0000
0100
1000
0001
0000
,  // measure 36
0000
1001
0000
2002
0000
0000
3003
0000
,  // measure 37
1010
1000
0100
0110
0000
0011
0000
1010
,  // measure 38
0000
0000
0000
0010
0000
0010
0100
0010
,  // measure 39
0001
0010
0100
1100
0000
0011
0000
1100
,  // measure 40
0000
0001
1020
0130
,  // measure 41
0101
0001
0010
0110
0000
1100
0000
0101
,  // measure 42
0000
0000
0200
0310
,  // measure 43
0002
0000
0000
1003
0000
0000
0000
0110
,  // measure 44
0001
0010
0100
1001
0000
0110
0000
0000
,  // measure 45
1010
1000
0100
0110
0000
0011
0000
1010
,  // measure 46
0000
0000
0000
0010
0000
0010
0100
0010
,  // measure 47
0001
0010
0100
1100
0000
0011
0000
1100
,  // measure 48
0000
0001
1020
0130
,  // measure 49
0101
0001
0010
0110
0000
1100
0000
0101
,  // measure 50
0000
0000
0200
0310
,  // measure 51
0002
0000
0000
1003
0000
0000
0000
0110
,  // measure 52
1001
0110
0000
0011
0000
1100
0000
0000
,  // measure 53
0001
0000
1000
0000
0001
0000
0010
0100
0000
0000
0100
0000
0010
0001
0000
0000
,  // measure 54
1000
0000
0001
0000
1000
0000
0010
0100
0000
0000
0100
0000
0010
1000
0000
0000
,  // measure 55
1000
0100
1000
0000
0000
0000
0001
0100
0001
0000
1000
0000
0010
0001
0000
0000
,  // measure 56
1000
0100
0000
0000
0100
0010
0000
0000
0010
0001
0000
0000
0001
0100
0000
0000
,  // measure 57
0001
0000
1000
0000
0001
0000
0010
0100
0000
0000
0100
0000
0010
0001
0000
0000
,  // measure 58
1000
0000
0001
0000
1000
0000
0010
0100
0000
0000
0100
0000
0010
1000
0000
0000
,  // measure 59
1000
0100
1000
0000
0000
0000
0001
0100
0001
0000
1000
0000
0010
0000
0000
0000
,  // measure 60
1001
0000
0000
0110
0000
0000
2002
0000
0000
0000
0000
0000
0000
0000
0000
0000
,  // measure 61
3003
0000
0000
0000
;

//---------------dance-single - ANOTHER----------------
#NOTES:
     dance-single:
     ANOTHER:
     medium:
     5:
     0.372,0.425,0.044,0.022,0.000,230.000,4.000,2.000,0.000,0.000:  // measure 1
0000
0000
0000
0000
,  // measure 2
0000
0000
0000
0000
,  // measure 3
0000
0000
0000
0000
,  // measure 4
0000
0000
0000
0000
,  // measure 5
0100
1000
0010
1000
0000
0100
0000
1000
,  // measure 6
0000
0000
0000
0000
,  // measure 7
0000
0000
0000
0000
,  // measure 8
0000
0000
0000
0000
,  // measure 9
0010
0001
0100
0001
0000
0100
0000
0001
,  // measure 10
0000
0000
0010
1000
,  // measure 11
0002
0000
0000
1003
0000
0000
0000
0010
,  // measure 12
1000
0100
0010
0100
0000
0100
0000
0000
,  // measure 13
1000
0000
0001
0000
0010
0100
0010
0000
,  // measure 14
0001
0000
1000
0000
0010
0100
0010
0000
,  // measure 15
1000
0000
0001
0001
,  // measure 16
0010
0000
0100
0000
1000
0010
0100
0000
,  // measure 17
0001
1000
0001
0000
0100
0000
0100
0000
,  // measure 18
0001
1000
0001
0000
0100
0000
0100
0000
,  // measure 19
0010
1000
0000
0000
1100
0000
0000
0000
,  // measure 20
0010
0001
0100
1000
,  // measure 21
0001
0000
1000
0000
0100
0010
0100
0000
,  // measure 22
1000
0001
0100
0010
,  // measure 23
1000
0001
0100
0001
,  // measure 24
0010
0000
0001
0000
1000
0010
0100
0000
,  // measure 25
0001
0000
1000
0000
0010
0001
0010
0000
,  // measure 26
0001
1000
0010
0100
,  // measure 27
0001
0000
1000
0100
0000
0010
0000
0001
,  // measure 28
0000
1000
0000
0100
0000
0000
0000
0000
,  // measure 29
0010
0001
1000
0010
,  // measure 30
0100
0100
0001
1000
,  // measure 31
0100
0100
1000
0001
,  // measure 32
0010
0010
0010
0000
0010
0000
1000
0000
,  // measure 33
0001
0010
0100
1000
,  // measure 34
0001
1000
0001
0001
,  // measure 35
0011
0100
1000
0100
,  // measure 36
0000
1100
0000
0011
0000
0000
0000
0000
,  // measure 37
0001
1000
0100
0010
0000
0100
0000
1000
,  // measure 38
0000
0000
0000
0001
0000
0000
0100
0000
,  // measure 39
0010
0000
1000
0001
0000
0100
0000
0010
,  // measure 40
0000
0000
0000
0000
,  // measure 41
0001
0100
0010
1000
0000
0010
0000
0100
,  // measure 42
0000
0000
0001
1000
,  // measure 43
0200
0000
0000
0310
0000
0000
0000
0001
,  // measure 44
1000
0100
0010
0100
0000
1000
0000
0000
,  // measure 45
0001
0100
0010
0100
0000
0001
0000
1000
,  // measure 46
0000
0000
0000
0010
0000
0010
1000
0100
,  // measure 47
0010
0000
0001
1000
0000
0100
0000
0010
,  // measure 48
0000
0010
0001
0100
0000
0001
0010
0001
,  // measure 49
0010
0001
1000
0010
0000
0100
0000
0010
,  // measure 50
0000
0000
0000
1000
0000
0001
0000
0000
,  // measure 51
1000
0000
0000
0001
0000
0000
0000
0000
,  // measure 52
0001
1000
0010
0100
0000
0001
0000
0000
,  // measure 53
0001
1000
0001
0000
1000
0001
1000
0000
,  // measure 54
0010
0100
0010
0000
0100
0010
0100
0000
,  // measure 55
0010
1000
0010
0000
0100
0001
0100
0000
,  // measure 56
0010
1000
0100
0000
0010
0001
0100
0000
,  // measure 57
0001
1000
0001
0000
1000
0001
1000
0000
,  // measure 58
0010
0100
0010
0000
0100
0010
0100
0000
,  // measure 59
1000
0001
0010
0100
,  // measure 60
1000
0000
0001
1000
0000
0000
0000
0000
;

//---------------dance-single - BASIC----------------
#NOTES:
     dance-single:
     BASIC:
     easy:
     3:
     0.189,0.263,0.066,0.044,0.000,110.000,6.000,4.000,0.000,0.000:  // measure 1
0000
0000
0000
0000
,  // measure 2
0000
0000
0000
0000
,  // measure 3
0000
0000
0000
0000
,  // measure 4
0000
0000
0000
0000
,  // measure 5
0010
0000
0100
0000
,  // measure 6
0100
0000
0000
0000
,  // measure 7
0000
0000
0000
0000
,  // measure 8
0000
0000
0000
0000
,  // measure 9
0100
0000
0010
0000
,  // measure 10
0010
0000
0001
1000
,  // measure 11
0001
0000
0000
0000
,  // measure 12
0010
0000
0000
0000
,  // measure 13
1001
0000
0100
0000
,  // measure 14
1001
0000
0010
0000
,  // measure 15
1100
0000
0011
0000
,  // measure 16
0001
0000
1000
1000
,  // measure 17
1000
0000
0001
0000
,  // measure 18
0100
0000
0010
0000
,  // measure 19
0110
0000
0000
0000
,  // measure 20
1001
0000
0000
0100
,  // measure 21
0010
0000
0000
1000
,  // measure 22
0001
0000
0010
0000
,  // measure 23
0001
1000
0010
0000
,  // measure 24
0100
0100
0100
0100
,  // measure 25
0001
0000
1000
0000
,  // measure 26
0010
0000
0000
0000
,  // measure 27
0100
0000
0000
0001
,  // measure 28
0100
0000
0010
0010
,  // measure 29
1000
0000
0001
0000
,  // measure 30
1000
0000
0010
0000
,  // measure 31
0000
0100
0000
0000
,  // measure 32
0001
0000
0001
1000
,  // measure 33
0010
0000
0100
0000
,  // measure 34
0001
0000
1000
0000
,  // measure 35
0010
0000
0010
0000
,  // measure 36
0002
0000
0000
0000
,  // measure 37
1003
0000
0010
0000
,  // measure 38
1000
0000
0001
0000
,  // measure 39
0010
0000
0001
0000
,  // measure 40
1000
0000
0100
0000
,  // measure 41
1000
0000
0001
0000
,  // measure 42
0100
0000
0001
0000
,  // measure 43
1000
0000
0001
0000
,  // measure 44
0100
0000
0010
0000
,  // measure 45
1000
0000
0010
0000
,  // measure 46
1000
0000
0001
0000
,  // measure 47
0010
0000
0001
0000
,  // measure 48
1000
0000
0100
0000
,  // measure 49
1000
0000
0001
0000
,  // measure 50
0100
0000
0001
0000
,  // measure 51
2000
0000
0000
0000
,  // measure 52
3002
0000
0000
0000
,  // measure 53
1003
0000
0010
0000
,  // measure 54
0100
0000
1000
1000
,  // measure 55
0001
0000
0001
0001
,  // measure 56
1000
0010
0100
0001
,  // measure 57
0001
0000
0100
0000
,  // measure 58
1000
0000
0010
0010
,  // measure 59
0010
0000
0100
0000
,  // measure 60
0002
0000
0000
0003
;
